#TITLE:Wish I Had An Angel;
#SUBTITLE:[N]hoc[D];
#ARTIST:NightWish;
#TITLETRANSLIT:;
#SUBTITLETRANSLIT:;
#ARTISTTRANSLIT:;
#CREDIT:;
#BANNER:night-bn.PNG;
#BACKGROUND:eva-bg.PNG;
#LYRICSPATH:;
#CDTITLE:;
#MUSIC:Wish i had an angle - Nightwish.mp3;
#OFFSET:-0.128;
#SAMPLESTART:48.812;
#SAMPLELENGTH:12.000;
#SELECTABLE:YES;
#BPMS:0.000=79.500,1.000=79.495,3.000=79.488,5.000=79.495,7.000=79.493,8.000=79.491,9.000=79.488,10.000=79.495,12.000=79.493,13.000=158.976,14.000=158.995,15.000=158.976,17.000=158.995,18.000=158.976,19.000=158.995,20.000=132.485,20.500=198.708,21.000=158.976,22.000=158.995,23.000=158.976,24.000=158.995,25.000=158.976,27.000=158.995,28.000=158.976,30.000=158.995,31.000=158.976,32.000=158.995,33.000=158.976,35.000=158.995,36.000=158.976,38.000=158.995,39.000=158.976,40.000=158.995,41.000=158.976,43.000=158.995,44.000=158.976,45.000=79.495,47.000=79.488,48.000=82.021,49.000=77.118,50.000=79.495,51.000=79.488,52.000=79.495,54.000=79.493,55.000=79.488,56.000=79.495,58.000=79.493,59.000=79.488,60.000=79.495,61.000=158.976,62.000=158.995,63.000=158.976,64.000=158.995,65.000=158.976,67.000=158.995,68.000=158.976,70.000=158.995,71.000=158.976,72.000=158.995,73.000=158.976,75.000=158.995,76.000=158.976,78.000=158.995,79.000=158.976,80.000=158.995,81.000=158.976,83.000=158.995,84.000=158.976,86.000=158.995,87.000=158.976,88.000=158.995,89.000=158.976,91.000=158.995,92.000=158.976,94.000=158.995,95.000=158.976,96.000=158.995,97.000=158.976,99.000=158.995,100.000=158.976,101.000=158.976,102.333=158.995,103.333=158.976,104.000=159.025,104.583=159.045,104.667=158.976,105.667=158.995,106.667=158.976,107.667=158.995,108.667=158.976,109.667=158.995,110.667=158.976,111.667=158.995,112.667=158.976,113.667=158.995,114.667=158.976,115.667=158.995,116.667=158.976,117.667=158.995,118.667=158.976,119.250=158.995,120.250=158.976,121.250=158.995,122.250=158.976,123.250=158.995,124.250=158.976,125.250=158.995,126.250=158.976,127.250=158.995,128.250=158.976,129.250=158.995,130.250=158.976,131.250=158.995,132.250=158.976,133.250=158.995,134.250=158.976,135.250=158.995,136.250=158.976,137.250=158.995,138.250=158.976,139.250=158.995,140.250=158.976,141.250=158.995,142.250=158.976,143.250=158.995,144.250=158.976,145.250=158.995,146.250=158.976,147.250=158.995,148.250=158.976,149.250=158.995,150.250=158.976,151.250=158.995,152.250=158.976,153.250=158.995,154.250=158.976,155.250=158.995,156.250=158.976,157.250=158.995,158.250=158.976,159.250=158.995,160.250=158.976,161.250=158.995,162.250=45.934,162.500=885.147,163.250=158.995,164.250=158.976,165.250=158.995,166.250=158.976,167.250=158.995,168.250=158.976,169.250=158.995,170.250=158.976,171.250=158.995,172.250=158.976,173.250=158.995,174.250=158.976,175.250=158.995,176.250=158.976,177.250=158.995,178.250=158.976,179.250=158.995,180.250=158.976,181.250=158.995,182.250=158.976,183.250=158.995,184.250=158.976,185.250=158.995,186.250=158.976,187.250=158.995,188.250=158.976,189.250=158.995,190.250=158.976,191.250=158.995,192.250=158.976,193.250=158.995,194.250=158.976,195.250=158.995,196.250=158.976,197.250=158.995,198.250=158.976,199.250=158.995,200.250=158.976,201.250=158.995,202.250=158.976,203.250=158.995,204.250=158.976,205.250=158.995,206.250=158.976,207.250=158.995,208.250=158.976,209.250=158.995,210.250=158.976,211.250=158.995,212.250=158.976,213.250=158.995,214.250=158.976,215.250=158.995,216.250=158.976,217.250=158.995,218.250=158.976,219.250=158.995,220.250=158.976,221.250=158.976,221.333=159.025,221.917=158.976,222.583=158.995,223.583=158.976,224.250=159.025,224.833=159.034,224.833=159.091,224.917=158.976,225.917=158.995,226.917=158.976,227.917=158.995,228.917=158.976,229.917=158.995,230.917=158.976,231.917=158.995,232.917=158.976,233.917=158.995,234.917=158.976,235.917=158.995,236.917=158.976,237.917=158.995,238.917=158.976,239.417=159.014,241.542=159.014,241.917=158.976,244.917=158.967,246.917=158.957,247.917=158.976,250.917=158.967,253.917=158.976,257.917=158.957,258.917=158.976,261.917=158.967,264.917=158.976,267.917=158.957,268.917=158.976,271.917=158.967,274.917=158.976,278.917=158.957,279.917=158.976,282.917=158.967,284.917=46.772,285.167=793.800,285.917=158.976,288.917=158.957,289.917=158.976,292.917=158.967,295.917=158.976,299.917=158.967,300.917=169.387,301.917=149.762,302.917=158.976,303.917=79.483,305.917=79.488,306.917=79.483,308.917=158.976,315.917=158.957,316.917=158.976,319.917=158.967,322.917=158.976,325.917=158.957,326.917=158.976,329.917=158.967,332.917=158.976,336.917=158.957,337.917=158.976,339.917=158.963,340.292=158.976,340.292=158.989,340.667=158.999,341.292=159.014,341.417=158.999,342.042=159.014,342.167=158.976,343.167=158.999,343.792=159.014,343.917=158.999,344.542=159.014,344.667=158.999,345.292=159.014,345.417=158.957,346.417=158.976,347.417=159.014,347.917=158.938,348.042=158.938,348.667=159.014,349.292=159.014,350.167=158.938,350.292=158.938,350.917=159.014,351.042=158.976,351.292=159.014,351.417=158.976,352.417=158.999,353.042=159.014,353.167=158.953,353.792=158.976,353.792=159.014,353.917=158.999,354.542=159.014,354.667=158.976,355.667=158.999,356.292=159.014,356.542=158.976,356.792=159.014,356.917=158.999,357.542=159.014,357.667=158.999,358.292=159.014,358.417=158.999,359.042=159.014,360.167=158.999,360.792=159.014,360.917=158.995,361.917=159.014,362.542=159.014,364.667=159.043,365.667=159.014,375.667=159.043,376.667=159.014,386.667=159.043,387.667=159.014,396.667=159.043,397.667=159.014,407.667=159.043,408.667=159.014,418.667=159.043,419.667=159.014,428.667=79.514,429.667=79.507,433.667=79.514,434.667=79.507,439.667=79.514,440.667=79.507,445.542=159.014,454.542=159.043,455.542=159.014,467.542=159.043,468.542=159.014,474.542=159.043,475.542=159.014,487.542=159.043,488.542=159.014,496.542=159.043,497.542=159.014,510.542=159.043,511.542=159.014,516.542=159.043,517.542=159.014,529.542=159.043,530.542=159.014,539.542=159.043,540.542=159.014,552.542=159.043,553.542=159.014,558.542=159.043,559.542=159.014,562.542=159.014,563.167=159.014,570.792=159.043,571.792=159.014;
#STOPS:101.083=0.126
,102.250=0.126
,103.417=0.126
,104.583=0.126
,118.750=0.315
,118.917=0.315
,119.167=1.038
,180.750=0.755
,221.333=0.126
,222.500=0.126
,223.667=0.126
,224.833=0.126
,239.167=0.189
,239.667=0.189
,240.792=0.094
,241.042=0.094
,241.292=0.094
,241.542=0.094
,340.292=0.094
,341.292=0.094
,342.042=0.094
,343.792=0.094
,344.542=0.094
,345.292=0.094
,347.542=0.094
,347.792=0.094
,348.042=0.094
,349.292=0.094
,349.542=0.094
,350.292=0.094
,351.042=0.094
,351.292=0.094
,353.042=0.094
,353.792=0.094
,354.542=0.094
,356.292=0.094
,356.542=0.094
,356.792=0.094
,357.542=0.094
,358.292=0.094
,359.042=0.094
,359.292=0.094
,359.542=0.094
,359.792=0.094
,360.042=0.094
,360.792=0.094
,362.542=0.094
,362.792=0.094
,363.042=0.094
,363.292=0.094
,363.542=0.094
,444.479=0.094
,444.604=0.094
,444.729=0.094
,444.854=0.094
,444.979=0.094
,445.104=0.094
,445.229=0.094
,445.354=0.094
,445.479=0.094
,563.167=0.094
,563.417=0.094
,563.667=0.094
;
#BGCHANGES:;
// cache tags:
#FIRSTBEAT:0.000;
#LASTBEAT:565.792;
#SONGFILENAME:Songs/Music V.I.P ^_^/wish i had an angel/Wish i had an angle super .sm;
#HASMUSIC:1;
#HASBANNER:1;
#MUSICLENGTH:246.099;
// end cache tags

//---------------dance-single - ----------------
#NOTES:
     dance-single:
     :
     Hard:
     18:
     1.000,1.000,1.000,1.000,1.000,1103.000,687.000,548.000,0.000,628.000:
2002
0000
0000
0000
0000
0000
0000
0000
0120
0000
0000
0000
0000
0000
0000
0003
0202
0000
0000
0000
0000
0000
0000
0000
0000
0000
0000
0000
0000
0000
0000
3300
2200
0000
0000
0000
0000
0000
0000
0330
0210
0000
0000
0000
0020
0000
0000
0000
3000
0000
0000
0030
0010
0000
0000
0303
0222
0000
0000
0000
0000
0000
0000
0333
,
2200
0000
0000
0000
0000
0000
0000
0300
0220
0000
0000
0000
0000
0000
0000
3000
2002
0000
0000
0000
0000
0000
0000
0000
0000
0000
0000
0300
0100
0000
0000
0030
0220
0000
0000
0003
0002
0000
0000
3300
2200
0000
0000
0000
0000
0000
0000
0303
0202
0000
0000
0000
0000
0000
0000
0000
0000
0000
0000
0000
0000
0000
0000
0330
,
0220
0000
0000
0000
0000
0000
0000
3300
2200
0000
0000
0000
0000
0000
0000
0033
0022
0000
0000
0000
0000
0000
0000
0000
0000
0000
0000
3000
1000
0000
0000
0003
2002
0000
0000
0000
0000
0000
0000
3300
2200
0000
0000
0300
0200
0000
0000
0033
0022
0000
0000
0000
0000
0000
0000
0000
0000
0000
0000
0030
0020
0000
0000
3003
,
2002
0000
0000
0000
0000
0000
0000
0330
0220
0000
0000
0000
0000
0000
0000
3003
2332
0000
0000
0000
0000
0000
0000
0000
0000
0000
0000
0000
0000
0000
0000
0000
0200
0000
0000
0000
0000
0000
0000
0000
0000
0000
0000
0000
0000
0000
0000
0000
0020
0000
0000
0000
0000
0000
0000
0000
0000
0000
0000
0000
0333
0000
0000
0000
,
0111
0020
0230
0320
0230
0000
3322
0230
,
2323
0000
0000
3030
2210
0000
0000
0000
3322
0000
0000
0000
2233
0000
0000
0000
,
3311
0000
0000
0000
0000
0000
0000
0000
0022
0000
0000
0000
0000
0000
0000
0000
2233
0000
0000
0000
3000
0000
0000
0000
2320
0000
0000
0000
0000
0000
0000
0000
3232
0000
0000
0000
0003
0000
0000
0000
0000
0000
0000
0000
0000
0000
0000
0000
2022
0000
0000
0000
0000
0000
0000
3033
2022
0000
0000
0000
0000
0000
0000
3033
,
2022
0000
0000
0000
0000
0000
0000
3033
2022
0000
0000
0000
0000
0000
0000
3333
2122
0000
0000
0000
0000
0000
0000
3033
0100
0000
0000
0000
0000
0000
0000
0000
0122
0000
0000
0000
0000
0000
0000
0000
0133
0000
0000
0000
0000
0000
0000
0000
0220
0000
0000
0000
0000
0000
0000
0000
1331
0000
0000
0000
0000
0000
0000
0000
,
2200
0000
0000
0000
0000
0000
0000
0000
3322
0000
0000
0000
0000
0000
0000
0033
2020
0000
0000
0000
0000
0000
0000
3030
0202
0000
0000
0000
0000
0000
0000
0303
2200
0000
0000
0000
0000
0000
0000
0000
0000
0000
0000
0000
0000
0000
0000
3300
2002
0000
0000
0000
0000
0000
0000
3003
2200
0000
0000
0000
0000
0000
0000
3300
,
0202
0000
0000
0000
0000
0000
0000
0303
2000
0000
0000
0000
0000
0000
0000
0000
0200
0000
0000
0000
0000
0000
0000
0000
0020
0000
0000
0000
0000
0000
0000
0000
0002
0000
0000
0000
0000
0000
0000
0030
0020
0000
0000
0000
0000
0000
0000
0300
0200
0000
0000
0000
0000
0000
0000
3000
2000
0000
0000
0000
0000
0000
0000
0300
,
0200
0000
0000
0000
0000
0000
0000
0030
0020
0000
0000
0000
0000
0000
0000
0003
0002
0000
0000
0000
0000
0000
0000
0300
0200
0000
0000
0000
0000
0000
0000
0030
0020
0000
0000
0000
0000
0000
0000
0300
0200
0000
0000
0000
0000
0000
0000
3000
2000
0000
0000
0000
0000
0000
0000
0300
0200
0000
0000
0000
0000
0000
0000
0030
,
0020
0000
0000
0000
0000
0000
0000
0003
0002
0000
0000
0000
0000
0000
0000
3303
1102
0000
0000
0000
0000
0000
0000
0000
0100
0000
0000
0000
2003
0000
0000
0000
0000
0000
0000
0000
0100
0000
0000
0000
3002
0000
0000
0000
0000
0000
0000
0000
1000
0000
0000
0000
0203
0000
0000
0000
0000
0000
0000
0000
0001
0000
0000
0000
,
2300
0001
0200
0000
3000
1300
0201
0001
1001
1001
0001
0001
1001
1001
0001
0001
,
1001
0001
1301
1001
0232
0000
0310
2000
0000
0100
3020
0000
1000
0230
0000
1000
,
2300
3100
1000
0010
1200
1000
1000
1000
1320
1000
1100
1100
2233
0010
0011
0010
,
0011
0010
0011
0010
3311
0000
0010
0000
0101
0000
0010
0000
0010
0000
0010
0000
,
1010
0100
0100
0100
0101
0010
0010
0010
,
0110
0100
0100
0100
0110
0010
0010
0010
,
0011
0001
0001
0001
1001
1000
1000
1000
,
1100
0100
0100
0100
0110
0010
0010
0010
,
1010
0100
0100
0100
0101
0010
0010
0010
,
0101
0000
0010
0000
0001
0010
0100
0010
0100
1000
0100
1000
0100
0010
0100
0010
,
0001
0220
0001
0000
0001
0000
0001
0330
,
0101
0220
1001
1331
,
0110
0000
0220
0000
1331
2200
0000
3300
,
0012
0000
0000
0000
0000
0000
2020
0200
0000
3030
0300
0000
0000
2020
0200
0000
3030
0300
0000
0000
2020
0200
0000
3030
,
0300
0000
0000
2020
0200
0000
3030
0300
0000
0000
1110
0000
0000
1000
0000
0000
1000
0000
0003
1000
0000
0000
1022
0000
,
0000
0000
1100
0000
0000
1100
0000
0000
1133
0000
0000
0220
,
0000
0000
0000
0000
0330
0000
0000
2200
0000
0000
0000
0000
0000
0000
0000
0000
3322
0000
0000
0000
0000
0000
1100
0000
,
0000
0000
0030
0000
0000
0000
0000
0000
0110
0000
0000
0000
0000
0000
0000
0000
0000
0000
0000
0000
1010
0000
0000
0000
0000
0000
0000
0000
0000
0000
0000
0000
1113
0000
1111
0000
1111
0000
0000
1112
0000
0000
0000
0000
0000
0010
0000
0000
,
0000
0110
0000
0100
0000
1100
0000
1000
0000
1010
0000
0010
0000
2113
0000
0100
,
0000
0101
0000
0001
0000
0011
0000
0010
0000
0110
0000
0100
0000
3211
0000
0001
,
0000
0011
0000
0010
0000
1010
0000
1000
0000
1010
0000
0010
0000
1321
0000
1000
,
0000
1100
0000
0100
0000
0101
0000
0000
0000
1101
0000
0000
0000
2132
0000
0110
,
0000
0100
0000
0110
0000
0010
0000
0110
0000
0010
0000
0110
0000
0100
0000
0110
,
0000
0100
0000
0110
0000
0010
0000
0110
0000
0110
0000
0110
0000
3223
0000
0000
,
0000
2332
0000
3203
0000
0300
0000
0202
0000
0323
0000
0030
0000
2221
0000
0001
,
0000
0000
0000
0000
3331
0000
0000
0000
0000
0000
0000
0000
0020
0000
0000
0000
0000
0000
0000
0000
0000
0000
0000
0000
0000
0000
0000
0000
0000
0000
0000
0000
0000
0000
0000
0000
0200
0000
0000
0000
0000
0000
0000
0000
0000
0000
0000
0000
0000
0000
0000
0030
0022
0000
0000
0000
0000
0000
0000
0000
0000
0000
0000
0000
,
0000
0000
0000
0000
0000
0000
0000
0000
0000
0000
0000
0300
0200
0000
0000
0000
0000
0000
0000
0000
2000
0000
0000
0000
0000
0000
0000
0000
0000
0000
0000
0000
0000
0000
0000
0033
0022
0000
0000
0000
0000
0000
0000
0000
0000
0000
0000
0000
0000
0000
0000
0330
0220
0000
0000
0000
0000
0000
0000
0000
0000
0000
0000
0000
,
0000
0000
0000
3003
2002
0000
0000
0000
0000
0000
0000
3003
2002
0000
0000
0000
0000
0000
0000
0000
0000
0000
0000
0000
0000
0000
0000
0000
0000
0000
0000
0000
0000
0000
0000
3030
2020
0000
0000
0000
0000
0000
0000
0000
0000
0000
0000
0000
0000
0000
0000
0033
0022
0000
0000
0000
0000
0000
0000
0000
0000
0000
0000
0000
,
0000
0000
0000
0330
0220
0000
0000
0000
0000
0000
0000
0330
0220
0000
0000
0000
0000
0000
0000
0000
0000
0000
0000
0000
0000
0000
0000
0000
0000
0000
0000
0000
0000
0000
0000
0330
0220
0000
0000
0000
0000
0000
0000
0000
0000
0000
0000
0000
0000
0000
0000
3333
1111
0000
0000
0000
0000
0000
0000
0000
0011
0000
0000
0000
,
0000
0110
0000
1100
0000
2222
0000
0000
3333
0222
0000
0000
0333
2022
0000
0000
,
3033
0220
0000
0000
0330
2022
0000
0000
3033
0111
0000
0000
0000
1111
0000
1111
,
0000
1111
0000
0000
0000
1111
1111
1111
1111
1111
0000
0000
0000
2220
0000
0000
,
0000
0000
0000
0330
0222
0000
0000
0000
0000
0000
0000
0000
0000
0000
0000
0000
0000
0000
0000
3330
2220
0000
0000
0000
0000
0000
0000
0000
0000
0000
0000
0000
0000
0000
0000
3333
1111
0000
0000
0000
0000
0000
0000
0000
2102
0000
0000
0000
0000
0000
0000
0000
3213
0000
0000
0000
0000
0000
0000
0000
2312
0000
0000
0000
,
0000
3113
0000
0000
0000
1111
0000
0000
0000
1110
0001
0010
0000
1010
0000
0010
,
0000
0101
0010
0100
0000
0110
0000
1000
0000
0101
1000
0100
0000
0101
0000
0010
,
0000
1100
0010
0100
0000
0110
0000
1000
0000
0011
0100
0001
0000
0110
0000
0100
,
0000
0011
0100
0010
0000
1100
0000
0010
0000
0110
1000
0100
0000
0101
0000
0100
,
0000
1100
0010
0100
0000
0110
0000
0001
0000
0110
1000
0100
0000
1100
0000
0010
,
0000
0101
1000
0100
0000
1100
0000
0100
0000
1010
0100
0010
0000
1010
0000
0100
,
0000
0011
0100
1000
0000
2011
0000
0010
0000
0110
0000
0010
0000
0011
0000
0010
,
0000
0110
0000
0011
0000
0110
0000
0101
0000
0110
0000
0011
0000
0101
0000
0111
,
0000
0111
0000
0111
0000
3212
0000
0000
0000
1010
0000
0000
0000
1310
0000
0000
,
0000
1100
0000
0000
0000
2110
0000
0000
0000
0110
0000
3200
0000
1010
0000
0000
,
0000
0000
0000
0320
0000
0000
0000
0000
0000
0000
0000
0000
0000
0000
0000
2233
0000
0020
0000
0000
0000
3300
0000
0030
0000
0000
0000
0000
0000
0202
0000
0020
0000
0000
0000
0303
0000
0030
0000
0000
0000
0000
0000
2220
0000
0002
0000
0000
,
0000
3330
0000
0003
0000
0000
0000
0000
0000
0202
0000
2020
0000
0000
0000
0303
0000
3030
0000
0000
0000
0000
0000
2200
0000
0000
0000
0000
0000
3322
0000
0000
0000
0000
0000
2233
0000
0000
0000
0000
0000
3322
0000
0000
0000
0000
0000
1233
,
0000
0000
0000
0000
0000
0000
0000
0000
0000
0000
0000
0011
0000
0000
0000
0000
0000
0000
0000
0000
0000
0000
0000
0011
0000
0000
0000
0000
0000
0000
0000
0000
0000
0000
0000
0311
0000
0000
0000
0000
0000
0000
0000
0000
0000
0000
0000
0211
,
0000
0000
0000
0000
0000
0000
0000
0000
0000
0000
0000
0011
0000
0000
0000
0000
0000
0320
0000
0000
0000
0000
0000
0101
0000
0000
0000
0000
0000
0000
0000
0000
0000
0000
0000
0132
0000
0000
0000
0000
0000
0000
0000
0000
0000
0000
0000
0123
,
0000
0000
0000
0000
0000
0000
0000
0000
0000
0000
0000
0101
0000
0000
0000
0000
0000
0000
0000
0000
0000
0000
0000
0101
0000
0000
0000
0000
0000
0000
0000
0000
0000
0000
0000
0101
0000
0000
0000
0000
0000
0131
0000
0000
0000
0000
0000
1111
,
0000
0000
0000
0000
0000
0000
0000
0000
0000
0000
0000
0000
0000
0000
0000
0000
0000
0000
0000
0000
0000
0000
0000
2112
0000
0000
0000
0000
0000
0010
0000
0000
0000
0000
0000
0110
0000
0000
0000
0000
0000
0100
0000
0000
0000
0000
0000
0110
,
0000
0000
0000
0000
0000
0010
0000
0000
0000
0000
0000
0110
0000
0000
0000
0000
0000
0100
0000
0000
0000
0000
0000
3223
0000
0000
0000
0000
0000
1000
0000
0000
0000
0000
0000
1001
0000
0000
0000
0000
0000
0001
0000
0000
0000
0000
0000
1001
,
0000
0000
0000
0000
0000
0001
0000
0000
0000
0000
0000
1001
0000
0000
0000
0000
0000
1000
0000
0000
0000
0000
0000
2332
0000
0000
0000
0000
0000
0100
0000
0000
0000
0000
0000
0110
0000
0000
0000
0000
0000
0100
0000
0000
0000
0000
0000
0110
,
0000
0000
0000
0000
0000
0010
0000
0000
0000
0000
0000
3113
0000
0000
0000
0000
0000
0201
0000
0000
0000
0000
0000
2310
0000
0000
0000
0000
0000
3201
0000
0000
0000
0000
0000
1320
0000
0000
0000
0000
0000
0132
0000
0000
0000
0000
0000
1123
,
0000
0000
0000
0000
0000
0000
0000
0000
0000
0000
0000
2231
0000
0000
0000
0000
0000
0011
0000
0000
0000
0000
0000
0001
0000
0000
0000
0000
0000
0011
0000
0000
0000
0000
0000
0001
0000
0000
0000
0000
0000
0011
0000
0000
0000
0000
0000
0001
,
0000
0000
0000
0000
0000
0011
0000
0000
0000
0000
0000
0001
0000
0000
0000
0000
0000
0011
0000
0000
0000
0000
0000
3322
0000
0000
0000
0000
0000
0100
0000
0000
0000
0000
0000
1100
0000
0000
0000
0000
0000
1000
0000
0000
0000
0000
0000
1100
,
0000
0000
0000
0000
0000
0100
0000
0000
0000
0000
0000
1100
0000
0000
0000
0000
0000
1000
0000
0000
0000
0000
0000
2133
0000
0000
0000
0000
0000
0000
0000
0000
0100
0000
0000
0011
0000
0000
0100
0000
0000
0000
0000
0000
0001
0000
0000
0010
,
0000
0000
0001
0000
0000
0010
0000
0000
0001
0000
0000
0220
0000
0000
0000
0000
0000
0000
0000
0000
0000
0000
0000
3331
0000
0000
0000
0000
0000
0101
0000
0000
0000
0000
0000
1111
0000
0000
0000
0000
0000
2000
0000
0000
0000
0000
0000
0110
,
0000
0000
0000
0000
0000
0010
0000
0000
0000
0000
0000
0210
0000
0000
0000
0000
0000
0010
0000
0000
0000
0000
0000
0012
0000
0000
0000
0000
0000
0010
0000
0000
0000
0000
0000
0310
0000
0000
0000
0000
0000
0120
0000
0000
0000
0000
0000
0100
,
0000
0000
0000
0000
0000
0103
0000
0000
0000
0000
0000
0101
0000
0000
0000
0000
0000
0100
0000
0000
0000
0000
0000
0132
0000
0000
0000
0000
0000
0010
0000
0000
0000
0000
0000
3223
0000
0000
0000
0000
0000
1002
0000
0000
0000
0000
0000
1000
,
0000
0000
0000
0000
0000
1300
0000
0000
0000
0000
0000
1200
0000
0000
0000
0000
0000
1030
0000
0000
0000
0000
0000
1020
0000
0000
0000
0000
0000
1300
0000
0000
0000
0000
0000
1100
0000
0000
0000
0000
0000
2100
0000
0000
0000
0000
0000
0130
,
0000
0000
0000
0000
0000
0000
0000
0000
0000
0000
0000
0000
0000
0000
0000
0000
0000
0000
0000
0000
3120
0000
0000
0000
0000
0000
0000
0000
0000
0000
0000
0000
0000
0000
0000
0000
0000
0000
0000
0000
0000
0000
0000
0000
2200
0000
0000
0000
0000
0000
0000
0000
0000
0000
0000
0000
0000
0000
0000
0000
0000
0000
0000
0000
0000
0000
0000
0000
0000
0000
0000
0000
0000
0000
0000
0000
0000
0000
0000
0000
0000
0000
0000
0000
0000
0000
0000
0000
0000
3333
0000
0000
1111
0000
0000
0000
0000
0000
0000
0000
0000
0000
0000
0000
0000
0000
0000
0000
0000
0000
0000
0000
0000
0000
0000
0000
1010
0000
0000
0000
0000
0000
0000
0000
0000
0000
0000
0000
0000
0000
0000
0000
0000
0000
0000
0000
0000
0000
0000
0000
0110
0000
0000
0000
0000
0000
0000
0000
0000
0000
0000
0000
0000
0000
0000
0000
0000
0000
0000
0000
0000
0000
0000
0000
0011
0000
0000
0000
0000
0000
0000
0000
0000
0000
0000
0000
0000
0000
0000
0000
0000
0000
0000
0000
0000
0000
0000
0000
0110
0000
0000
0000
,
0000
0000
0000
0000
0000
1010
0000
0000
0000
0000
0000
0110
0000
0000
0000
0000
0000
0011
0000
0000
0000
0000
0000
1110
0000
0000
0000
0000
0000
1100
0000
0000
0000
0000
0000
0111
0000
0000
0000
0000
0000
0110
0000
0000
0000
0000
0000
1101
,
0000
0000
0000
0000
0000
0101
0000
0000
0000
0000
0000
1111
0000
0000
0000
0000
0000
0000
0000
0000
0000
0000
0000
1111
0000
0000
0000
0000
0000
1111
0000
0000
0000
0000
0000
1111
0000
0000
0000
0000
0000
0000
0000
0000
0000
0000
0000
1111
,
0000
0000
0000
0000
0000
1111
0000
0000
0000
0000
0000
1111
0000
0000
0000
0000
0000
0000
0000
0000
0000
0000
0000
2011
0000
0000
0000
0000
0000
0000
0000
0000
0000
0000
0000
0120
0000
0000
0000
0000
0000
0000
0000
0000
0000
0000
0000
0231
,
0000
0000
0000
0000
0000
0000
0000
0000
0000
0000
0000
3312
0000
0000
0000
0000
0000
0020
0000
0000
0000
0000
0000
0033
0000
0000
0000
0000
0000
0210
0000
0000
0000
0000
0000
0022
0000
0000
0000
0000
0000
0333
0000
0000
0000
0000
0000
0220
,
0000
0000
0000
0000
0000
0000
0000
0000
0000
0000
0000
0330
0000
0000
0220
0000
0000
0000
0000
0000
0000
0000
0000
0000
0000
0000
0000
0000
0000
0330
0000
0000
0220
0000
0000
0000
0000
0000
0000
0000
0000
0330
0000
0000
0220
0000
0000
0000
0000
0000
0000
0000
0000
0000
0000
0000
0000
0000
0000
0330
0000
0000
0220
0000
0000
0000
0000
0000
0000
0000
0000
0000
0000
0000
0000
0000
0000
0330
0000
0000
0110
0000
0000
0000
0000
0000
0000
0000
0000
0000
0000
0000
0022
0000
0000
0000
0000
0000
0000
0000
0000
0000
0000
0000
0000
0000
0000
0000
0000
0000
0000
0000
0000
0000
0000
0000
2233
0000
0000
0000
0000
0000
0000
0000
0000
0000
0000
0000
0000
0000
0000
0000
0000
0000
3301
0000
0000
0000
0000
0000
0010
0000
0000
0000
0000
0000
1100
0000
0000
0000
0000
0000
0010
0000
0000
0000
0000
0000
0100
0000
0000
0000
0000
0000
1010
0000
0000
0000
0000
0000
0100
0000
0000
0000
0000
0000
1001
0000
0000
0000
0000
0000
0110
0000
0000
0000
0000
0000
1001
0000
0000
0000
,
0000
0000
1110
0000
0000
0111
0000
0000
1110
0000
0000
2111
0000
0000
0000
0000
0000
0000
0000
0000
0000
0000
0000
0000
0000
0000
0000
0000
0000
0110
0000
0000
0000
0000
0000
3002
0000
0000
0000
0000
0000
0110
0000
0000
0000
0000
0000
0000
,
0000
0000
0000
0000
0000
0110
0000
0000
0110
0000
0000
2113
0000
0000
0000
0000
0000
0000
0000
0000
0000
0000
0000
0000
0000
0000
0000
0000
0000
0110
0000
0000
0000
0000
0000
3002
0000
0000
0000
0000
0000
0110
0000
0000
0000
0000
0000
0110
,
0000
0000
0000
0000
0000
0110
0000
0000
0000
0000
0000
2113
0000
0000
0000
0000
0000
0000
0000
0000
0000
0000
0000
0000
0000
0000
0000
0000
0000
0110
0000
0000
0000
0000
0000
3002
0000
0000
0000
0000
0000
0110
0000
0000
0000
0000
0000
0000
,
0000
0000
0000
0000
0000
0110
0000
0000
0000
0000
0000
2003
0000
0000
0000
0000
0000
0110
0000
0000
0000
0000
0000
0000
0000
0000
0000
0000
0000
0110
0000
0000
0000
0000
0000
3002
0000
0000
0000
0000
0000
0110
0000
0000
0000
0000
0000
0110
,
0000
0000
0000
0000
0000
0000
0000
0000
0000
0000
0000
2113
0000
0000
0000
0000
0000
0000
0000
0000
0000
0000
0000
0000
0000
0000
0000
0000
0000
0110
0000
0000
0000
0000
0000
3002
0000
0000
0000
0000
0000
0110
0000
0000
0000
0000
0000
0000
,
0000
0000
0000
0000
0000
0110
0000
0000
0110
0000
0000
2113
0000
0000
0000
0000
0000
0000
0000
0000
0000
0000
0000
0000
0000
0000
0000
0000
0000
0110
0000
0000
0000
0000
0000
3002
0000
0000
0000
0000
0000
0110
0000
0000
0000
0000
0000
0110
,
0000
0000
0000
0000
0000
0110
0000
0000
0000
0000
0000
2113
0000
0000
0000
0000
0000
0000
0000
0000
0000
0000
0000
0000
0000
0000
0000
0000
0000
0110
0000
0000
0000
0000
0000
3002
0000
0000
0000
0000
0000
0110
0000
0000
0000
0000
0000
0000
,
0000
0000
0000
0000
0000
0110
0000
0000
0110
0000
0000
2113
0000
0000
0000
0000
0000
0000
0000
0000
0000
0000
0000
0000
0000
0000
0000
0000
0000
0000
0000
0000
0000
0000
0000
3222
0000
0000
0000
0000
0000
0000
0000
0000
0000
0000
0000
0000
,
0000
0000
0333
0000
0000
1111
0000
0000
0000
0000
0000
0000
0000
0000
0000
0000
0000
1011
0000
0000
0000
0000
0000
0000
0000
0000
1111
0000
0000
0000
0000
0000
0000
0000
0000
0000
0000
0000
0000
0000
0000
0000
0000
0000
0000
0000
0000
1110
,
0000
0000
0000
0000
0000
0000
0000
0000
1110
0000
0000
0000
0000
0000
0000
0000
0000
1110
0000
0000
0000
0000
0000
0000
0000
0000
0000
0000
0000
0000
0000
0000
0000
0000
0000
0000
0000
0000
0000
0000
0000
0110
0000
0000
0000
0000
0000
1100
,
0000
0000
0110
0000
0000
0000
0000
0000
0000
0000
0000
0000
0000
0000
0000
0000
0000
0110
0000
0000
1001
0000
0000
0000
0000
0000
0000
0000
0000
0110
0000
0000
0000
0000
0000
0000
0000
0000
0110
0000
0000
0110
0000
0000
0000
0000
0000
0000
,
0000
0000
0000
0000
0000
1111
0000
0000
0000
0000
0000
0000
0000
0000
1110
0000
0000
0000
0000
0000
0000
0000
0000
0111
0000
0000
0000
0000
0000
0000
0000
0000
1110
0000
0000
0000
0000
0000
0000
0000
0000
0000
0000
0000
0000
0000
0000
0000
,
0000
0000
0000
0000
0000
1111
0000
0000
1111
0000
0000
1111
0000
0000
0000
0000
0000
0000
0000
0000
1111
0000
0000
0000
0000
0000
0000
0000
0000
1111
0000
0000
0000
0000
0000
0000
0000
0000
1100
0000
0000
0110
0000
0000
0011
0000
0000
0110
,
0000
0000
1100
0000
0000
0000
0000
0000
0000
0000
0000
1110
0000
0000
0000
0000
0000
0000
0000
0000
0000
0000
0000
0000
0000
0000
0000
0000
0000
0000
0000
0000
1110
0000
0000
0111
0000
0000
1110
0000
0000
0111
0000
0000
1110
0000
0000
0000
,
0000
0000
0000
0000
0000
0000
0000
0000
2111
0000
0000
0000
0000
0000
0000
0000
0000
0000
0000
0000
0000
0000
0000
0000
0000
0000
0220
0000
0000
0000
0000
0000
3002
0000
0000
0330
0000
0000
0220
0000
0000
0000
0000
0000
0000
0000
0000
0330
,
0000
0000
0110
0000
0000
0110
0000
0000
2223
0000
0000
0000
0000
0000
0000
0000
0000
0000
0000
0000
0000
0000
0000
0330
0000
0000
0220
0000
0000
0000
0000
0000
3002
0000
0000
0330
0000
0000
0110
0000
0000
0000
0000
0000
0110
0000
0000
0000
,
0000
0000
0110
0000
0000
0000
0000
0000
2223
0000
0000
0000
0000
0000
0000
0000
0000
0000
0000
0000
0000
0000
0000
0330
0000
0000
0220
0000
0000
0000
0000
0000
3002
0000
0000
0330
0000
0000
0220
0000
0000
0000
0000
0000
0000
0000
0000
0330
,
0000
0000
0220
0000
0000
0000
0000
0000
2003
0000
0000
0330
0000
0000
0220
0000
0000
0000
0000
0000
0000
0000
0000
0330
0000
0000
0220
0000
0000
0000
0000
0000
3002
0000
0000
0330
0000
0000
0110
0000
0000
0000
0000
0000
0220
0000
0000
0000
,
0000
0000
0000
0000
0000
0330
0000
0000
2223
0000
0000
0000
0000
0000
0000
0000
0000
0330
0000
0000
0220
0000
0000
0000
0000
0000
0000
0000
0000
0330
0000
0000
3222
0000
0000
0000
0000
0000
0000
0000
0000
0330
0000
0000
0110
0000
0000
0000
,
0000
0110
0000
0000
2113
0000
0000
0000
0000
0000
0111
0000
0000
0000
0000
0000
3112
0000
0000
0000
0000
0000
0110
0000
,
0000
0000
0000
0000
0000
0000
0000
0000
0000
0000
0000
0000
0000
0000
0000
0000
0000
0000
0000
0000
0000
0000
0000
0000
0000
0000
0000
0000
0000
0003
0000
0000
0112
0000
0000
0000
0000
0000
0000
0000
0000
0000
0000
0000
0000
0000
0000
0000
0000
0000
0000
0000
0000
0000
0000
0000
0000
0000
0000
0000
0000
0000
0000
0000
0000
0000
0000
0000
0000
0000
0000
0000
0000
0000
0000
0000
0000
0000
0000
0000
1110
0000
0000
0000
0000
0000
0000
0000
0000
0000
0000
0000
0000
0000
0000
0000
0000
0000
0000
0000
0000
0000
0000
0000
1110
0000
0000
0000
0000
0000
0000
0000
0000
0000
0000
0000
0000
0000
0000
0000
0000
0000
0000
0000
0000
0003
0000
0000
1112
0000
0000
0000
0000
0000
0000
0000
0000
0000
0000
0000
0000
0000
0000
0000
0000
0000
0000
0000
0000
0000
0000
0000
1110
0000
0000
0000
0000
0000
0000
0000
0000
0000
0000
0000
0000
0000
0000
0000
0000
0000
0000
0000
0000
0000
0000
0000
1110
0000
0000
0000
0000
0000
0000
0000
0000
0000
0000
0000
0000
0000
0000
0000
,
0000
0000
0000
0000
0000
0000
0000
0000
0000
0000
0000
0000
0000
0000
0000
0000
0000
0000
0000
0000
0000
0000
0000
0000
0000
0000
0000
0000
0000
0003
0000
0000
2220
0000
0000
0000
0000
0000
0000
0000
0000
0000
0000
0000
0000
0000
0000
0000
0000
0000
0000
0000
0000
0000
0000
0000
0001
0000
0000
0000
0000
0000
0000
0000
0000
0000
0000
0000
0000
0000
0000
0000
0000
0000
0000
0000
0000
0000
0000
0000
0001
0000
0000
0000
0000
0000
0000
0000
0000
0000
0000
0000
0000
0000
0000
0000
0000
0000
0000
0000
0000
0000
0000
0000
0001
0000
0000
0000
0000
0000
0000
0000
0000
0000
0000
0000
0000
0000
0000
0000
0000
0000
0000
0000
0000
3330
0000
0000
0222
0000
0000
0000
0000
0000
0000
0000
0000
0000
0000
0000
0000
0000
0000
0000
0000
0000
0000
0000
0000
0000
0000
0000
1000
0000
0000
0000
0000
0000
0000
0000
0000
0000
0000
0000
0000
0000
0000
0000
0000
0000
0000
0000
0000
0000
0000
0000
1000
0000
0000
0000
0000
0000
0000
0000
0000
0000
0000
0000
0000
0000
0000
0000
,
0000
0000
0000
0000
0000
0000
0000
0000
1000
0000
0000
0000
0000
0000
0000
0000
0000
0000
0000
0000
0000
0000
0000
0000
0000
0000
0000
0000
0000
0333
0000
0000
1112
0000
0000
0000
0000
0000
0000
0000
0000
0000
0000
0000
0000
0000
0000
0000
0000
0000
0000
0000
0000
0000
0000
0000
0000
0000
0000
0000
0000
0000
0000
0000
0000
0000
0000
0000
0000
0000
0000
0000
0000
0000
0000
0000
0000
0000
0000
0000
1100
0000
0000
0000
0000
0000
0000
0000
0000
0000
0000
0000
0000
0000
0000
0000
0000
0000
0000
0000
0000
0000
0000
0000
0000
0000
0000
0000
0000
0000
0000
0000
0000
0000
0000
0000
0000
0000
0000
0000
0000
0000
0000
0000
0000
0000
0000
0000
0110
0000
0000
0000
0000
0000
0000
0000
0000
0000
0000
0000
0000
0000
0000
0000
0000
0000
0000
0000
0000
0000
0000
0000
0100
0000
0000
0000
0000
0000
0000
0000
0000
0000
0000
0000
0000
0000
0000
0000
0000
0000
0000
0000
0000
0000
0000
0000
1100
0000
0000
0000
0000
0000
0000
0000
0000
0000
0000
0000
0000
0000
0000
0000
,
0000
0000
0000
0000
1010
0000
0000
0000
0000
0000
1110
0000
0000
0000
0000
0000
2113
0000
0000
0010
0000
0000
3211
0000
,
0000
0000
2311
0000
0000
0011
0000
0000
0110
0000
0000
0011
,
0000
0000
0110
0000
0000
0110
0000
0000
0111
0000
0000
0111
,
0000
0000
0000
0000
0000
0000
0000
0000
0000
0000
0000
0000
0000
0000
0000
0000
0000
0000
0000
0000
0000
0000
0000
0000
0000
0000
0000
0000
0000
3000
0000
0000
2111
0000
0000
0000
0000
0000
0000
0000
0000
0000
0000
0000
0000
0000
0000
0000
0000
0000
0000
0000
0000
0000
0000
0000
0000
0000
0000
0000
0000
0000
0000
0000
0000
0000
0000
0000
0000
0000
0000
0000
0000
0000
0000
0000
0000
0000
0000
0000
0101
0000
0000
0000
0000
0000
0000
0000
0000
0000
0000
0000
0000
0000
0000
0000
0000
0000
0000
0000
0000
0000
0000
0000
0000
0000
0000
0000
0000
0000
0000
0000
0000
0000
0000
0000
0000
0000
0000
0000
0000
0000
0000
0000
0000
0000
0000
0000
0111
0000
0000
0000
0000
0000
0000
0000
0000
0000
0000
0000
0000
0000
0000
0000
0000
0000
0000
0000
0000
0000
0000
0000
0111
0000
0000
0000
0000
0000
0000
0000
0000
0000
0000
0000
0000
0000
0000
0000
0000
0000
0000
0000
0000
0000
0000
0000
0111
0000
0000
0000
0000
0000
0000
0000
0000
0000
0000
0000
0000
0000
0000
0000
,
0000
0000
0000
0000
0110
0000
0000
0000
0000
0000
0110
0000
0000
0000
0000
0000
3012
0000
0000
0100
0000
0000
2113
0000
,
0000
0000
0000
0000
3211
0000
0000
0000
0000
0000
0011
0000
0000
0000
0000
0000
0011
0000
0000
0010
0000
0000
1310
0000
,
0000
0000
0010
0000
0000
0000
0000
0000
1100
0000
0000
0010
0000
0000
0100
0000
0000
1010
0000
0000
0100
0000
0000
1010
0000
0000
0001
0000
0000
1110
0000
0000
0001
0000
0000
0010
0000
0000
0101
0000
0000
1000
0000
0000
0110
0000
0000
1000
,
0000
0000
0000
0000
1100
0000
0000
0000
0000
0000
0001
0000
0000
0000
0000
0000
0110
0000
0000
0000
0000
0000
0000
0000
0000
0000
0000
0000
1100
0000
0000
0000
0000
0000
0000
0000
0000
0000
0000
0000
0101
0000
0000
0000
0000
0000
0000
0000
0000
0000
0000
0000
1100
0000
0000
0001
0000
0000
0100
0000
0000
0001
0000
0000
1100
0000
0000
0001
0000
0000
1000
0000
0000
0100
0000
0000
0001
0000
0000
0100
0000
0000
0000
0000
0000
0000
0000
0000
1100
0000
0000
0000
0000
0000
0100
0000
,
0000
0000
0000
0000
1100
0000
0000
0000
0000
0000
0000
0000
0000
0000
0000
0000
0101
0000
0000
0000
0000
0000
0000
0000
0000
0000
0000
0000
0001
0000
0000
0000
0000
0000
0000
0000
0000
0000
0000
0000
0100
0000
0000
0001
0000
0000
0100
0000
0000
1000
0000
0000
0101
0000
0000
0000
0000
0000
0000
0000
0000
0100
0000
0000
1000
0000
0000
0100
0000
0000
1000
0000
0000
0000
0000
0000
0001
0000
0000
0100
0000
0000
1000
0000
0000
0100
0000
0000
1000
0000
0000
0000
0000
0000
0100
0000
,
0000
0000
0000
0000
0101
0000
0000
0000
0000
0000
1000
0000
0000
0000
0000
0000
0001
0000
0000
0000
0000
0000
0100
0000
0000
0000
0000
0000
1100
0000
0000
0000
0000
0000
0000
0000
0000
0000
0000
0000
0000
0000
0000
0001
0000
0000
0100
0000
0000
0000
0000
0000
1100
0000
0000
0000
0000
0000
0100
0000
0000
0000
0000
0000
1100
0000
0000
0000
0000
0000
0001
0000
0000
0100
0000
0000
1000
0000
0000
0001
0000
0000
0100
0000
0000
0001
0000
0000
1000
0000
0000
0100
0000
0000
1000
0000
,
0000
0100
0000
0000
1001
0000
0000
0000
0000
0000
0000
0000
0000
0000
0000
0000
1100
0000
0000
0000
0000
0000
0101
0000
0000
0000
0000
0000
1100
0000
0000
0000
0000
0000
0000
0000
0000
1000
0000
0000
0100
0000
0000
1000
0000
0000
0100
0000
0000
1000
0000
0000
0001
0000
0000
0100
0000
0000
1000
0000
0000
0100
0000
0000
1000
0000
0000
0100
0000
0000
0001
0000
0000
0100
0000
0000
0001
0000
0000
0100
0000
0000
1000
0000
0000
0001
0000
0000
1100
0000
0000
0001
0000
0000
0100
0000
,
0000
0001
0000
0000
1100
0000
0000
0000
0000
0000
0000
0000
0000
1100
0000
0000
0110
0000
0000
0011
0000
0000
0110
0000
0000
1100
0000
0000
0110
0000
0000
0011
0000
0000
0110
0000
0000
1111
0000
0000
0000
0000
0000
0000
0000
0000
0000
0000
0000
0000
0000
0000
0000
0000
0000
0000
0000
0000
0000
0000
0000
1100
0000
0000
0000
0000
0000
0000
0000
0000
0000
0000
0000
0110
0000
0000
0000
0000
0000
0000
0000
0000
0000
0000
0000
0011
0000
0000
0000
0000
0000
0000
0000
0000
0000
0000
,
0000
0110
0000
0000
0000
0000
0000
0000
0000
0000
0000
0000
0000
1100
0000
0000
0000
0000
0000
0000
0000
0000
0000
0000
0000
1110
0000
0000
0000
0000
0000
0000
0000
0000
0000
0000
0000
0111
0000
0000
0000
0000
0000
0000
0000
0000
0000
0000
0000
0110
0000
0000
0000
0000
0000
0000
0000
0000
0000
0000
0000
1110
0000
0000
0000
0000
0000
0000
0000
0000
0000
0000
0000
0110
0000
0000
0000
0000
0000
0000
0000
0000
0000
0000
0000
0111
0000
0000
0000
0000
0000
0000
0000
0000
0000
0000
,
0000
0011
0000
0000
0000
0000
0000
0000
0000
0000
0000
0000
0000
1110
0000
0000
0000
0000
0000
0000
0000
0000
0000
0000
0000
0110
0000
0000
0000
0000
0000
0000
0000
0000
0000
0000
0000
1110
0000
0000
0000
0000
0000
0000
0000
0000
0000
0000
0000
0110
0000
0000
0000
0000
0000
0000
0000
0000
0000
0000
0000
0111
0000
0000
0000
0000
0000
0000
0000
0000
0000
0000
0000
0011
0000
0000
0000
0000
0000
0000
0000
0000
0000
0000
0000
1110
0000
0000
0000
0000
0000
0000
0000
0000
0000
0000
,
0000
0110
0000
0000
0000
0000
0000
0000
0000
0000
0000
0000
0000
0111
0000
0000
0000
0000
0000
0000
0000
0000
0000
0000
0000
0011
0000
0000
0000
0000
0000
0000
0000
0000
0000
0000
0000
1110
0000
0000
0000
0000
0000
0000
0000
0000
0000
0000
0000
1100
0000
0000
0000
0000
0000
0000
0000
0000
0000
0000
0000
0111
0000
0000
0000
0000
0000
0000
0000
0000
0000
0000
0000
1010
0000
0000
0000
0000
0000
0000
0000
0000
0000
0000
0000
0110
0000
0000
0000
0000
0000
0000
0000
0000
0000
0000
,
0000
0101
0000
0000
0000
0000
0000
0000
0000
0000
0000
0000
0000
0111
0000
0000
0000
0000
0000
0000
0000
0000
0000
0000
0000
1010
0000
0000
0000
0000
0000
0000
0000
0000
0000
0000
0000
1110
0000
0000
0000
0000
0000
0000
0000
0000
0000
0000
0000
0101
0000
0000
0000
0000
0000
0000
0000
0000
0000
0000
0000
0111
0000
0000
0000
0000
0000
0000
0000
0000
0000
0000
0000
0110
0000
0000
0000
0000
0000
0000
0000
0000
0000
0000
0000
1110
0000
0000
0000
0000
0000
0000
0000
0000
0000
0000
,
0000
1100
0000
0000
0000
0000
0000
0000
0000
0000
0000
0000
0000
1110
0000
0000
0000
0000
0000
0000
0000
0000
0000
0000
0000
0011
0000
0000
0000
0000
0000
0000
0000
0000
0000
0000
0000
0111
0000
0000
0000
0000
0000
0000
0000
0000
0000
0000
0000
0110
0000
0000
0000
0000
0000
0000
0000
0000
0000
0000
0000
1110
0000
0000
0000
0000
0000
0000
0000
0000
0000
0000
0000
0110
0000
0000
0000
0000
0000
0000
0000
0000
0000
0000
0000
0111
0000
0000
0000
0000
0000
0000
0000
0000
0000
0000
,
0000
0011
0000
0000
0000
0000
0000
0000
0000
0000
0000
0000
0000
0111
0000
0000
0000
0000
0000
0000
0000
0000
0000
0000
0000
1100
0000
0000
0000
0000
0000
0000
0000
0000
0000
0000
0000
2110
0000
0000
0000
0000
0000
0000
0000
0000
0000
0000
0000
0110
0000
0000
0000
0000
0000
0000
0000
0000
0000
0000
0000
0111
0000
0000
0000
0000
0000
0000
0000
0000
0000
0000
0000
0011
0000
0000
0000
0000
0000
0000
0000
0000
0000
0000
0000
0111
0000
0000
0000
0000
0000
0000
0000
0000
0000
0000
,
0000
0011
0000
0000
0000
0000
0000
0000
0000
0000
0000
0000
0000
0111
0000
0000
0000
0000
0000
0000
0000
0000
0000
0000
0000
0011
0000
0000
0000
0000
0000
0000
0000
0000
0000
0000
0000
0111
0000
0000
0000
0000
0000
0000
0000
0000
0000
0000
0000
0110
0000
0000
0000
0000
0000
0000
0000
0000
0000
0000
0000
0111
0000
0000
0000
0000
0000
0000
0000
0000
0000
0000
0000
0110
0000
0000
0000
0000
0000
0000
0000
0000
0000
0000
0000
3112
0000
0000
0000
0000
0000
0000
0000
0000
0000
0000
,
0000
0000
0000
0000
0000
0000
0000
0000
0000
0000
0000
0000
0000
0000
0000
0000
0000
0000
0000
0000
0000
0000
0000
0003
0000
0000
0002
0000
0000
0000
0000
0000
0000
0000
0000
0000
0000
0000
0000
0000
0000
0000
0000
0000
0000
0000
0000
0000
0000
0000
0000
0000
0000
0000
0000
0000
0000
0000
0000
0000
0000
0000
0000
0000
0000
0000
0000
0000
0000
0000
0000
0003
0000
0000
1112
0000
0000
0000
0000
0000
0000
0000
0000
0000
0000
0000
0000
0000
0000
0000
0000
0000
0000
0000
0000
0000
0000
0000
1010
0000
0000
0000
0000
0000
0000
0000
0000
0000
0000
0000
0000
0000
0000
0000
0000
0000
0000
0000
0000
0000
0000
0000
1110
0000
0000
0000
0000
0000
0000
0000
0000
0000
0000
0000
0000
0000
0000
0000
0000
0000
0000
0000
0000
0003
0000
0000
0112
0000
0000
0000
0000
0000
0000
0000
0000
0000
0000
0000
0000
0000
0000
0000
0000
0000
0000
0000
0000
0000
0000
0000
1110
0000
0000
0000
0000
0000
0000
0000
0000
0000
0000
0000
0000
0000
0000
0000
0000
0000
0000
0000
0000
0000
,
0000
0000
1100
0000
0000
0000
0000
0000
0000
0000
0000
0000
0000
0000
0000
0000
0000
0000
0000
0000
0000
0000
0000
0003
0000
0000
1112
0000
0000
0000
0000
0000
0000
0000
0000
0000
0000
0000
0000
0000
0000
0000
0000
0000
0000
0000
0000
0000
0000
0000
1010
0000
0000
0000
0000
0000
0000
0000
0000
0000
0000
0000
0000
0000
0000
0000
0000
0000
0000
0000
0000
0003
0000
0000
1112
0000
0000
0000
0000
0000
0000
0000
0000
0000
0000
0000
0000
0000
0000
0000
0000
0000
0000
0000
0000
0000
0000
0000
1010
0000
0000
0000
0000
0000
0000
0000
0000
0000
0000
0000
0000
0000
0000
0000
0000
0000
0000
0000
0000
0003
0000
0000
1112
0000
0000
0000
0000
0000
0000
0000
0000
0000
0000
0000
0000
0000
0000
0000
0000
0000
0000
0000
0000
0003
0000
0000
1112
0000
0000
0000
0000
0000
0000
0000
0000
0000
0000
0000
0000
0000
0000
0000
0000
0000
0000
0000
0000
0000
0000
0000
0110
0000
0000
0000
0000
0000
0000
0000
0000
0000
0000
0000
0000
0000
0000
0000
0000
0000
0000
0000
0000
0000
,
0000
0000
1110
0000
0000
0000
0000
0000
0000
0000
0000
0000
0000
0000
0000
0000
0000
0000
0000
0000
0000
0000
0000
0003
0000
0000
1102
0000
0000
0000
0000
0000
0000
0000
0000
0000
0000
0000
0000
0000
0000
0000
0000
0000
0000
0000
0000
0000
0000
0000
1110
0000
0000
0000
0000
0000
0000
0000
0000
0000
0000
0000
0000
0000
0000
0000
0000
0000
0000
0000
0000
0003
0000
0000
1012
0000
0000
0000
0000
0000
0000
0000
0000
0000
0000
0000
0000
0000
0000
0000
0000
0000
0000
0000
0000
0000
0000
0000
1110
0000
0000
0000
0000
0000
0000
0000
0000
0000
0000
0000
0000
0000
0000
0000
0000
0000
0000
0000
0000
0003
0000
0000
0112
0000
0000
0000
0000
0000
0000
0000
0000
0000
0000
0000
0000
0000
0000
0000
0000
0000
0000
0000
0000
0003
0000
0000
1112
0000
0000
0000
0000
0000
0000
0000
0000
0000
0000
0000
0000
0000
0000
0000
0000
0000
0000
0000
0000
0000
0000
0000
0110
0000
0000
0000
0000
0000
0000
0000
0000
0000
0000
0000
0000
0000
0000
0000
0000
0000
0000
0000
0000
0000
,
0000
0000
1100
0000
0000
0000
0000
0000
0000
0000
0000
0000
0000
0000
0000
0000
0000
0000
0000
0000
0000
0000
0000
0003
0000
0000
1112
0000
0000
0000
0000
0000
0000
0000
0000
0000
0000
0000
0000
0000
0000
0000
0000
0000
0000
0000
0000
0000
0000
0000
0110
0000
0000
0000
0000
0000
0000
0000
0000
0000
0000
0000
0000
0000
0000
0000
0000
0000
0000
0000
0000
0003
0000
0000
1111
0000
0000
0000
0000
0000
0000
0000
0000
0000
0000
0000
0000
0000
0000
0000
0000
0000
0000
0000
0000
0000
0000
0000
1101
0000
0000
0000
0000
0000
0000
0000
0000
0000
0000
0000
0000
0000
0000
0000
0000
0000
0000
0000
0000
0000
0000
0000
1011
0000
0000
0000
0000
0000
0000
0000
0000
0000
0000
0000
0000
0000
0000
0000
0000
0000
0000
0000
0000
0000
0000
0000
1101
0000
0000
0000
0000
0000
0000
0000
0000
0000
0000
0000
0000
0000
0000
0000
0000
0000
0000
0000
0000
0000
0000
0000
2110
0000
0000
0000
0000
0000
0000
0000
0000
0000
0000
0000
0000
0000
0000
0000
0000
0000
0000
0000
0000
0000
,
0000
0000
0011
0000
0000
0000
0000
0000
0000
0000
0000
0000
0000
0000
0000
0000
0000
0000
0000
0000
0000
0000
0000
3000
0000
0000
2101
0000
0000
0000
0000
0000
0000
0000
0000
0000
0000
0000
0000
0000
0000
0000
0000
0000
0000
0000
0000
0000
0000
0000
0011
0000
0000
0000
0000
0000
0000
0000
0000
0000
0000
0000
0000
0000
0000
0000
0000
0000
0000
0000
0000
3000
0000
0000
2110
0000
0000
0000
0000
0000
0000
0000
0000
0000
0000
0000
0000
0000
0000
0000
0000
0000
0000
0000
0000
0000
0000
0000
0111
0000
0000
0000
0000
0000
0000
0000
0000
0000
0000
0000
0000
0000
0000
0000
0000
0000
0000
0000
0000
0000
0000
0000
0111
0000
0000
0000
0000
0000
0000
0000
0000
0000
0000
0000
0000
0000
0000
0000
0000
0000
0000
0000
0000
3000
0000
0000
2111
0000
0000
0000
0000
0000
0000
0000
0000
0000
0000
0000
0000
0000
0000
0000
0000
0000
0000
0000
0000
0000
0000
0000
0110
0000
0000
0000
0000
0000
0000
0000
0000
0000
0000
0000
0000
0000
0000
0000
0000
0000
0000
0000
0000
0000
,
0000
0000
0101
0000
0000
0000
0000
0000
0000
0000
0000
0000
0000
0000
0000
0000
0000
0000
0000
0000
0000
0000
0000
3000
0000
0000
2011
0000
0000
0000
0000
0000
0000
0000
0000
0000
0000
0000
0000
0000
0000
0000
0000
0000
0000
0000
0000
0000
0000
0000
0101
0000
0000
0000
0000
0000
0000
0000
0000
0000
0000
0000
0000
0000
0000
0000
0000
0000
0000
0000
0000
3000
0000
0000
2011
0000
0000
0000
0000
0000
0000
0000
0000
0000
0000
0000
0001
0000
0000
0000
0000
0000
0000
0000
0000
0000
0000
0000
0010
0000
0000
0000
0000
0000
0000
0000
0000
0000
0000
0000
0100
0000
0000
0000
0000
0000
0000
0000
0000
0000
0000
0000
0111
0000
0000
0000
0000
0000
0000
0000
0000
0000
0000
0000
0100
0000
0000
0000
0000
0000
0000
0000
0000
3000
0000
0000
2010
0000
0000
0000
0000
0000
0000
0000
0000
0000
0000
0000
0001
0000
0000
0000
0000
0000
0000
0000
0000
0000
0000
0000
0111
0000
0000
0000
0000
0000
0000
0000
0000
0000
0000
0000
0001
0000
0000
0000
0000
0000
0000
0000
0000
0000
,
0000
0000
0010
0000
0000
0000
0000
0000
0000
0000
0000
0000
0000
0000
0100
0000
0000
0000
0000
0000
0000
0000
0000
3000
0000
0000
2111
0000
0000
0000
0000
0000
0000
0000
0000
0000
0000
0000
0100
0000
0000
0000
0000
0000
0000
0000
0000
0000
0000
0000
0010
0000
0000
0000
0000
0000
0000
0000
0000
0000
0000
0000
0001
0000
0000
0000
0000
0000
3000
0000
0000
0000
0000
0000
2222
0000
0000
0000
0000
0000
0000
0000
0000
0000
0000
0000
0000
0000
0000
0000
0000
0000
0000
0000
0000
0000
0000
0000
0000
0000
0000
0000
0000
0000
0000
0000
0000
0000
0000
0000
0333
0000
0000
0000
0000
0000
0000
0000
0000
0000
0000
0000
0222
0000
0000
0000
0000
0000
0000
0000
0000
0000
0000
0000
0000
0000
0000
0000
0000
0000
0000
0000
0000
0000
0000
0000
0000
0000
0000
0000
0000
0000
0000
0000
0000
0000
0000
0000
0333
0000
0000
0000
0000
0000
0000
0000
0000
0000
0000
0000
0222
0000
0000
0000
0000
0000
0000
0000
0000
0000
0000
0000
0000
0000
0000
0000
0000
0000
0000
0000
0000
0000
,
0000
0000
0000
0000
0000
0000
0000
0333
0000
0000
0000
0000
0000
0111
0000
0000
0000
0000
0000
0000
0000
0000
0000
0000
0000
0111
0000
0000
0000
0000
0000
0000
0000
0000
0000
0000
0000
0111
0000
0000
0000
0000
0000
0000
0000
0000
0000
0000
0000
0111
0000
0000
0000
0000
0000
0000
0000
0000
0000
0000
0000
3222
0000
0000
0000
0000
0000
0000
0000
0000
0000
0000
0000
0000
0000
0000
0000
0000
0000
0000
0000
0000
0333
0000
0000
2220
0000
0000
0000
0000
0000
0000
0000
0000
3330
0000
,
0000
2220
0000
0000
0000
0000
0000
0000
0000
0000
3330
0000
0000
2220
0000
0000
0000
0000
0000
0000
0000
0000
0000
0000
0000
0000
0000
0000
0000
0000
0000
0000
0000
0000
3330
0000
0000
2220
0000
0000
0000
0000
0000
0000
0000
0000
0000
0000
0000
0000
0000
0000
0000
0000
0000
0000
0000
0000
3330
0000
0000
0222
0000
0000
0000
0000
0000
0000
0000
0000
0000
0000
0000
0000
0000
0000
0000
0000
0000
0000
0000
0000
0333
0000
0000
2220
0000
0000
0000
0000
0000
0000
0000
0000
0000
0000
,
0000
0000
0000
0000
0000
0000
0000
0000
0000
0000
3330
0000
0000
2220
0000
0000
0000
0000
0000
0000
0000
0000
3330
0000
0000
0222
0000
0000
0000
0000
0000
0000
0000
0000
0333
0000
0000
2220
0000
0000
0000
0000
0000
0000
0000
0000
3330
0000
0000
2220
0000
0000
0000
0000
0000
0000
0000
0000
3330
0000
0000
2220
0000
0000
0000
0000
0000
0000
0000
0000
0000
0000
0000
0000
0000
0000
0000
0000
0000
0000
0000
0000
3330
0000
0000
2222
0000
0000
0000
0000
0000
0000
0000
0000
3333
0000
,
0000
2222
0000
0000
0000
0000
0000
0000
0000
0000
3333
0000
0000
2222
0000
0000
0000
0000
0000
0000
0000
0000
3333
0000
0000
2222
0000
0000
0000
0000
0000
0000
0000
0000
3333
0000
0000
2022
0000
0000
0000
0000
0000
0000
0000
0000
0000
0000
0000
0000
0000
0000
0000
0000
0000
0000
0000
0000
3033
0000
0000
0222
0000
0000
0000
0000
0000
0000
0000
0000
0000
0000
0000
0000
0000
0000
0000
0000
0000
0000
0000
0000
0333
0000
0000
2220
0000
0000
0000
0000
0000
0000
0000
0000
0000
0000
,
0000
0000
0000
0000
0000
0000
0000
0000
0000
0000
3330
0000
0000
2222
0000
0000
0000
0000
0000
0000
0000
0000
3333
0000
0000
2220
0000
0000
0000
0000
0000
0000
0000
0000
3330
0000
0000
2220
0000
0000
0000
0000
0000
0000
0000
0000
3330
0000
0000
0222
0000
0000
0000
0000
0000
0000
0000
0000
0333
0000
0000
2220
0000
0000
0000
0000
0000
0000
0000
0000
0000
0000
0000
0000
0000
0000
0000
0000
0000
0000
0000
0000
3330
0000
0000
2220
0000
0000
0000
0000
0000
0000
0000
0000
3330
0000
,
0000
0000
0222
0000
0000
0000
0000
0000
0000
0000
0000
0000
0000
0000
0000
0000
0000
0000
0000
0000
0333
0000
0000
0000
0000
0000
2220
0000
0000
0000
0000
0000
0000
0000
0000
0000
0000
0000
0000
0000
0000
0000
0000
0000
3330
0000
0000
0000
0000
0000
0220
0000
0000
0000
0000
0000
0000
0000
0000
0000
0000
0000
0000
0000
0000
0000
0000
0000
0000
0000
0000
0030
0000
0000
0022
0000
0000
0000
0000
0000
0000
0000
0000
0000
0000
0000
0000
0000
0000
0000
0000
0000
0000
0000
0000
0330
0000
0000
0220
0000
0000
0000
0000
0000
0000
0000
0000
0000
0000
0000
0000
0000
0000
0000
0000
0000
0000
0000
0000
0300
0000
0000
2200
0000
0000
0000
0000
0000
0000
0000
0000
0000
0000
0000
0000
0000
0000
0000
0000
0000
0000
0000
0000
0330
0000
0000
0220
0000
0000
0000
0000
0000
0000
0000
0000
0000
0000
0000
0000
0000
0000
0000
0000
0000
0000
0000
0000
0033
0000
0000
0022
0000
0000
0000
0000
0000
0000
0000
0000
0000
0000
0000
0000
0000
0000
0000
0000
0000
0000
0000
0000
0330
,
0000
0000
0220
0000
0000
0000
0000
0000
0000
0000
0000
0000
0000
0000
0000
0000
0000
0000
0000
0000
0000
0000
0000
3300
0000
0000
2200
0000
0000
0000
0000
0000
0000
0000
0000
0000
0000
0000
0000
0000
0000
0000
0000
0000
0000
0000
0000
0330
0000
0000
0220
0000
0000
0000
0000
0000
0000
0000
0000
0000
0000
0000
0000
0000
0000
0000
0000
0000
0000
0000
0000
0033
0000
0000
0022
0000
0000
0000
0000
0000
0000
0000
0000
0000
0000
0000
0000
0000
0000
0000
0000
0000
0000
0000
0000
0330
0000
0000
0220
0000
0000
0000
0000
0000
0000
0000
0000
0000
0000
0000
0000
0000
0000
0000
0000
0000
0000
0000
0000
3300
0000
0000
2200
0000
0000
0000
0000
0000
0000
0000
0000
0000
0000
0000
0000
0000
0000
0000
0000
0000
0000
0000
0000
0330
0000
0000
0220
0000
0000
0000
0000
0000
0000
0000
0000
0000
0000
0000
0000
0000
0000
0000
0000
0000
0000
0000
0000
0033
0000
0000
3311
0000
0000
0000
0000
0000
0000
0000
0000
0000
0000
0000
0010
0000
0000
0000
0000
0000
0000
0000
0000
0000
,
0000
0100
0000
0000
0000
0000
0000
0010
0000
0000
0000
0000
0000
1100
0000
0000
0000
0000
0000
0010
0000
0000
0000
0000
0000
0001
0000
0000
0000
0000
0000
0010
0000
0000
0000
0000
0000
1100
0000
0000
0000
0000
0000
0100
0000
0000
0000
0000
0000
0010
0000
0000
0000
0000
0000
0100
0000
0000
0000
0000
0000
1100
0000
0000
0000
0000
0000
0010
0000
0000
0000
0000
0000
0001
0000
0000
0000
0000
0000
0010
0000
0000
0000
0000
0000
1100
0000
0000
0000
0000
0000
0010
0000
0000
0000
0000
,
0000
0100
0000
0000
0000
0000
0000
1000
0000
0000
0000
0000
0000
0011
0000
0000
0000
0000
0000
0100
0000
0000
0000
0000
0000
0010
0000
0000
0000
0000
0000
0001
0000
0000
0000
0000
0000
1100
0000
0000
0000
0000
0000
0010
0000
0000
0000
0000
0000
0100
0000
0000
0000
0000
0000
1000
0000
0000
0000
0000
0000
0110
0000
0000
0000
0000
0000
0001
0000
0000
0000
0000
0000
0010
0000
0000
0000
0000
0000
0100
0000
0000
0000
0000
0000
1010
0000
0000
0000
0000
0000
0100
0000
0000
0000
0000
,
0000
0010
0000
0000
0000
0000
0000
0001
0000
0000
0000
0000
0000
0110
0000
0000
0000
0000
0000
1000
0000
0000
0000
0000
0000
0001
0000
0000
0000
0000
0000
0010
0000
0000
0000
0000
0000
1100
0000
0000
0000
0000
0000
0010
0000
0000
0000
0000
0000
0100
0000
0000
0000
0000
0000
0001
0000
0000
0000
0000
0000
0110
0000
0000
0000
0000
0000
1000
0000
0000
0000
0000
0000
0001
0000
0000
0000
0000
0000
0010
0000
0000
0000
0000
0000
1100
0000
0000
0000
0000
0000
0010
0000
0000
0000
0000
,
0000
0100
0000
0000
0000
0000
0000
0010
0000
0000
0000
0000
0000
0101
0000
0000
0000
0000
0000
0010
0000
0000
0000
0000
0000
0001
0000
0000
0000
0000
0000
0010
0000
0000
0000
0000
0000
1100
0000
0000
0000
0000
0000
0010
0000
0000
0000
0000
0000
0100
0000
0000
0000
0000
0000
1000
0000
0000
0000
0000
0000
1100
0000
0000
0000
0000
0000
0010
0000
0000
0000
0000
0000
0001
0000
0000
0000
0000
0000
0100
0000
0000
0000
0000
0000
0110
0000
0000
0000
0000
0000
0001
0000
0000
0000
0000
,
0000
1000
0000
0000
0000
0000
0000
0100
0000
0000
0000
0000
0000
0011
0000
0000
0000
0000
0000
0001
0000
0000
0000
0000
0000
0010
0000
0000
0000
0000
0000
0100
0000
0000
0000
0000
0000
1100
0000
0000
0000
0000
0000
0000
0000
0000
0000
0000
0000
0010
0000
0000
0000
0000
0000
0000
0000
0000
0000
0000
0000
0010
0000
0000
0000
0000
0000
0000
0000
0000
0000
0000
0000
0010
0000
0000
0000
0000
0000
0000
0000
0000
0000
0000
0000
0010
0000
0000
0000
0000
0000
0000
0000
0000
0000
0000
,
0000
0010
0000
0000
0000
0000
0000
0000
0000
0000
0000
0000
0000
0010
0000
0000
0000
0000
0000
0000
0000
0000
0000
0000
0000
0010
0000
0000
0000
0000
0000
0000
0000
0000
0000
0000
0000
0010
0000
0000
0000
0000
0000
0000
0000
0000
0000
0000
0000
0010
0000
0000
0000
0000
0000
0000
0000
0000
0000
0000
0000
0100
0000
0000
0000
0000
0000
0000
0000
0000
0000
0000
0000
0100
0000
0000
0000
0000
0000
0000
0000
0000
0000
0000
0000
0110
0000
0000
0000
0000
0000
0000
0000
0000
0000
0000
,
0000
0110
0000
0000
0000
0000
0000
0000
0000
0000
0000
0000
0000
0110
0000
0000
0000
0000
0000
0000
0000
0000
0000
0000
0000
0110
0000
0000
0000
0000
0000
0000
0000
0000
0000
0000
0000
0110
0000
0000
0000
0000
0000
0000
0000
0000
0000
0000
0000
0110
0000
0000
0000
0000
0000
0000
0000
0000
0000
0000
0000
0110
0000
0000
0000
0000
0000
0000
0000
0000
0000
0000
0000
0110
0000
0000
0000
0000
0000
0000
0000
0000
0000
0000
0000
0110
0000
0000
0000
0000
0000
0000
0000
0000
0000
0000
,
0000
0110
0000
0000
0000
0000
0000
0000
0000
0000
0000
0000
0000
1111
0000
0000
0000
0000
0000
0000
0000
0000
0000
0000
0000
1111
0000
0000
0000
0000
0000
0000
0000
0000
0000
0000
0000
1111
0000
0000
0000
0000
0000
0000
0000
0000
0000
0000
0000
1111
0000
0000
0000
0000
0000
0000
0000
0000
0000
0000
0000
1111
0000
0000
0000
0000
0000
0000
0000
0000
0000
0000
0000
1111
0000
0000
0000
0000
0000
1111
0000
0000
0000
0000
0000
1111
0000
0000
0000
0000
0000
2222
0000
0000
0000
0000
,
0000
0000
0000
0000
0000
0000
0000
0030
0000
0000
0000
0000
0000
0000
0000
0000
0000
0000
0000
0300
0000
0000
0000
0000
0000
0000
0000
0000
0000
0000
0000
3000
0000
0000
0000
0000
0000
0000
0000
0000
0000
0000
0000
0003
0000
0000
0000
0000
0000
0000
0000
0000
0000
0000
0000
0000
0000
0000
0000
0000
0000
0000
0000
0000
0000
0000
0000
0000
0000
0000
0000
0000
0000
0000
0000
0000
0000
0000
0000
0000
0000
0000
0000
0000
0000
0000
0000
0000
0000
0000
0000
0000
0000
0000
0000
0000
,
0000
0000
0000
0000
,
0000
0000
0000
0000
,
0000
0000
0000
0000
,
0000
0000
0000
0000
,
0000
0000
0000
0000
,
0000
0000
0000
0000
,
0000
0000
0000
0000
,
0000
0000
0000
0000
,
0000
0000
0000
0000
,
0000
0000
0000
0000
,
0000
0000
0000
0000
,
0000
0000
0000
0000
,
0000
0000
0000
0000
,
0000
0000
0000
0000
,
0000
0000
0000
0000
,
0000
0000
0000
0000
,
0000
0000
0000
0000
,
0000
0000
0000
0000
,
0000
0000
0000
0000
,
0000
0000
0000
0000
,
0000
0000
0000
0000
,
0000
0000
0000
0000
,
0000
0000
0000
0000
,
0000
0000
0000
0000
,
0000
0000
0000
0000
,
0000
0000
0000
0000
,
0000
0000
0000
0000
,
0000
0000
0000
0000
;
